The 100 S02E12 1080p WEB-DL DD5 1 H 264-KiNGS[rarbg]


    Seeders : 3      Leechers : 3

Hash :0BA19677834200A8881DE6F00986E7251DB2CB58
Added :1 Year+ in TV shows
Size :1.63 GB
Stream :Watch FREE Full Movies @ Movie4u


The 100 S02E12 1080p WEB-DL DD5 1 H 264-KiNGS[rarbg]
Fast And Direct Download Safely! And Anonymously!








Note :

Please Update (Trackers Info) Before Start Torrents Downloading to See Updated Seeders And Leechers for Batter Download Speed.

Trackers List

Tracker NameLast CheckStatusSeedersLeechers
udp://9.rarbg.me:2710/announce1 Year+success31
udp://9.rarbg.com:2710/announce1 Year+success31
udp://tracker.coppersurfer.tk:801 Year+success13
http://tracker.nwps.ws:6969/announce1 Year+success00
http://tracker.windsormetalbattery.com/announce1 Year+success00
http://tracker.winglai.com/announce1 Year+success00
udp://tracker.btzoo.eu:80/announce1 Year+success00
http://torrent-tracker.ru/announce.php1 Year+success00
http://torrent.gresille.org/announce1 Year+success00
http://tracker.best-torrents.net:6969/announce1 Year+success00
udp://tracker.ilibr.org:6969/announce1 Year+success00
udp://tracker.zond.org:80/announce1 Year+success00
http://announce.torrentsmd.com:6969/announce1 Year+success00
http://bigfoot1942.sektori.org:6969/announce1 Year+success00
http://tracker.istole.it/announce1 Year+success00
http://tracker.thepiratebay.org/announce1 Year+success00
http://exodus.desync.com:6969/announce1 Year+success00
http://tracker.publicbt.com/announce1 Year+success00
udp://10.rarbg.me:80/announce1 Year+success00
udp://12.rarbg.me:80/announce1 Year+success00
http://fr33dom.h33t.com:3310/announce1 Year+success00
udp://11.rarbg.me:80/announce1 Year+success00
http://tracker.trackerfix.com/announce1 Year+success00
udp://ipv4.tracker.harry.lu:80/announce1 Year+success00
udp://tracker.istole.it:80/announce1 Year+success00
udp://tracker.openbittorrent.com:80/announce1 Year+success00
udp://tracker.publicbt.com:80/announce1 Year+success00
udp://open.demonii.com:1337/announce1 Year+failed00
udp://tracker.ccc.de:80/announce1 Year+success00
udp://tracker.token.ro:80/announce1 Year+success00



Torrent File Content (3 files)


The.100.S02E12.1080p.WEB-DL.DD5.1.H.264-KiNGS[rarbg]
     RARBG.com.txt -
34 bytes

     The.100.S02E12.1080p.WEB-DL.DD5.1.H.264-KiNGS.mkv -
1.63 GB

     The.100.S02E12.1080p.WEB-DL.DD5.1.H.264-KiNGS.srt -
51.9 KB



Description



 							Video
ID : 2
Format : AVC
Format/Info : Advanced Video Codec
Format profile : [email protected]
Format settings, CABAC : Yes
Format settings, ReFrames : 4 frames
Codec ID : V_MPEG4/ISO/AVC
Duration : 42mn 33s
Bit rate : 4 995 Kbps
Width : 1 916 pixels
Height : 1 076 pixels
Display aspect ratio : 16:9
Frame rate mode : Constant
Frame rate : 23.976 fps
Color space : YUV
Chroma subsampling : 4:2:0
Bit depth : 8 bits
Scan type : Progressive
Bits/(Pixel*Frame) : 0.101
Stream size : 1.48 GiB (91%)
Language : English
Default : Yes
Forced : No
Color primaries : BT.709
Transfer characteristics : BT.709
Matrix coefficients : BT.709
Color range : Limited

Audio
ID : 3
Format : AC-3
Format/Info : Audio Coding 3
Mode extension : CM (complete main)
Format settings, Endianness : Big
Codec ID : A_AC3
Duration : 42mn 33s
Bit rate mode : Constant
Bit rate : 384 Kbps
Channel(s) : 6 channels
Channel positions : Front: L C R, Side: L R, LFE
Sampling rate : 48.0 KHz
Bit depth : 16 bits
Compression mode : Lossy
Stream size : 117 MiB (7%)
Language : English
Default : Yes
Forced : No

image

Related torrents

Torrent NameAddedSizeSeedLeechHealth
1 Year+ - in TV shows1.32 GB00
1 Year+ - in TV shows1.63 GB00
1 Year+ - in TV shows1.54 GB04
1 Year+ - in TV shows1.72 GB01
1 Year+ - in TV shows1.59 GB43

Note :

Feel free to post any comments about this torrent, including links to Subtitle, samples, screenshots, or any other relevant information. Watch The 100 S02E12 1080p WEB-DL DD5 1 H 264-KiNGS[rarbg] Free Full Movies Online, Like 123Movies, Fmovies, Putlocker, Netflix or Direct Download Torrent The 100 S02E12 1080p WEB-DL DD5 1 H 264-KiNGS[rarbg] via Magnet Link.

Comments (0 Comments)




Please login or create a FREE account to post comments

People Searches